#TITLE:Beautiful Hangover;
#SUBTITLE:Expi3nze;
#ARTIST:BigBang;
#TITLETRANSLIT:;
#SUBTITLETRANSLIT:;
#ARTISTTRANSLIT:;
#CREDIT:;
#BANNER:bn.png;
#BACKGROUND:bg.png;
#LYRICSPATH:;
#CDTITLE:;
#MUSIC:Beautiful Hangover.mp3;
#OFFSET:0.000;
#SAMPLESTART:100.000;
#SAMPLELENGTH:12.000;
#SELECTABLE:YES;
#BPMS:0.000=133.001,7.000=132.995,8.000=133.001,14.000=132.995,15.000=133.001,21.000=132.995,22.000=133.001,29.000=132.995,30.000=133.001,36.000=132.995,37.000=133.001,43.000=132.995,44.000=133.001,51.000=132.995,52.000=133.001,58.000=132.995,59.000=133.001,65.000=132.995,66.000=133.001,73.000=132.995,74.000=133.001,80.000=132.995,81.000=133.001,87.000=132.995,88.000=133.001,95.000=132.995,96.000=133.001,102.000=132.995,103.000=133.001,109.000=132.995,110.000=133.001,116.000=132.995,117.000=133.001,120.000=266.026,120.500=66.500,120.750=133.013,121.000=266.026,121.500=66.500,121.750=133.013,122.000=266.026,122.500=66.500,122.750=133.013,123.000=133.001,124.000=266.026,124.500=66.500,124.750=133.013,125.000=266.026,125.500=66.500,125.750=133.013,126.000=266.026,126.500=66.500,126.750=133.013,127.000=133.001,129.000=132.995,130.000=133.001,136.000=132.995,137.000=133.001,144.000=132.995,145.000=133.001,151.000=132.995,152.000=133.001,158.000=132.995,159.000=133.001,166.000=132.995,167.000=133.001,173.000=132.995,174.000=133.001,180.000=132.995,181.000=133.001,188.000=132.995,189.000=133.001,194.000=132.995,195.000=266.002,195.333=66.500,195.500=133.001,201.000=132.995,202.000=133.001,208.000=132.995,209.000=133.001,216.000=132.995,217.000=133.001,223.000=132.995,224.000=133.001,230.000=132.995,231.000=133.001,238.000=132.995,239.000=133.001,245.000=132.995,246.000=133.001,252.000=132.995,253.000=133.001;
#STOPS:;
#BGCHANGES:;
// cache tags:
#FIRSTBEAT:4.000;
#LASTBEAT:251.000;
#SONGFILENAME:Songs/SDO pack 1/Beautiful Hangover/Beautiful Hangover.sm;
#HASMUSIC:1;
#HASBANNER:1;
#MUSICLENGTH:115.776;
// end cache tags

//---------------dance-single - ----------------
#NOTES:
     dance-single:
     :
     Hard:
     21:
     1.000,1.000,1.000,0.734,0.190,524.000,299.000,85.000,0.000,147.000:
0000
0000
0000
0000
,
1002
0010
1000
0010
1000
0010
1000
0010
,
0123
0001
0100
0001
0100
0001
0100
0001
,
1032
0100
1000
0100
1000
0100
1000
0100
,
2013
0001
0110
0011
0110
0011
0110
0011
,
3112
1000
0100
0010
1100
0010
1100
0110
,
1023
1100
0001
0100
1000
0001
1100
1100
,
0231
0011
1000
0010
0001
1000
0011
0011
,
2310
0100
0011
0110
0011
0110
0011
0110
,
3211
1000
0010
1000
0011
1000
0011
0011
,
1320
1100
0001
0100
1000
0001
1100
1100
,
2130
0011
0100
0011
0100
0011
0100
0011
,
3102
1100
0010
1100
0010
1100
0010
1100
,
0010
1100
0010
0100
1000
0100
0010
0100
,
1103
0011
0110
1100
0012
1000
0213
0001
,
1300
0010
1100
0110
0012
1000
0113
0011
,
1100
0110
2001
0100
3001
0110
1100
0011
,
2100
0011
0100
0001
3120
1000
0031
0110
,
1100
0001
1100
0000
0110
0000
1100
0000
0012
0000
1000
0000
0213
0000
0001
0000
,
1300
0010
1100
0110
0012
1000
0113
0011
,
0120
0001
1130
1100
0011
1100
0011
1100
,
0110
0000
0011
0000
1100
0000
0012
0000
1000
0000
0113
1000
0001
0000
0100
0000
,
0012
1000
0110
1000
0100
0010
1100
0010
,
1023
0001
1100
0001
1000
0001
1100
0001
,
0132
1000
0110
1000
0100
0010
1100
0110
,
2103
0110
0001
0011
0100
0001
0110
0011
,
3102
0010
1100
0010
1000
0010
1100
0010
,
1023
0001
1100
0001
0100
0001
1100
0001
,
2130
0000
0011
0100
0100
0000
0011
0000
0100
0000
0011
0100
0011
0000
0011
0000
,
3102
0000
0010
0000
1100
0000
0010
0000
0100
0000
0010
0000
0100
0000
0100
0000
1023
1000
0001
1000
0001
0001
1000
0001
1230
1000
0001
1000
0001
0001
1000
0001
,
2311
0000
3112
0000
1123
0000
1130
0011
,
2110
0000
3112
0000
1213
0000
0311
1000
,
0110
0011
1100
0110
0012
1000
0113
0001
,
2100
0001
3210
1000
0321
0100
1030
0011
,
0110
1100
0011
0110
2100
0001
3110
0011
,
0110
1001
0110
1100
0012
1000
0103
0011
,
2100
0001
3210
1000
0312
1000
0113
1100
,
0210
1000
0311
0110
1100
0110
0011
0110
,
2100
0001
0100
0111
3210
1000
0311
0110
,
1000
0110
0001
1110
0001
1000
0110
1100
,
0001
0110
1000
0111
1000
0010
1100
0011
,
0110
0001
1100
0110
0011
1100
0011
0110
,
1200
0010
1000
1011
0312
1000
0113
2100
,
0001
3210
1000
1311
0100
0010
1100
0012
,
1000
0000
0213
1000
1000
0000
1311
0000
1000
0000
0001
0001
1100
0000
0110
0000
,
0011
0000
1000
0000
1000
0000
1000
0000
0011
0000
1000
0000
0011
0000
1000
0000
0011
1000
0100
1000
0011
1000
0100
1000
0011
1000
0100
1000
0011
1000
0100
1000
,
0011
0000
1100
0000
0011
0000
0110
0000
1000
0000
0011
0011
1100
0000
0011
0000
,
1100
0011
0100
0011
1000
0110
0011
1210
,
0000
0010
0310
0000
1101
0000
0120
0000
0000
0000
0130
0100
1011
0000
1110
0000
,
0011
0110
1011
0110
1100
0011
0110
1100
,
0011
0000
0110
0000
1100
0000
0210
0000
1000
0000
0311
1100
0011
0000
1100
0000
,
0011
0000
0110
0000
1100
0000
0011
1100
0001
0000
0110
0000
1100
0000
0011
0000
,
1000
0000
0110
0000
0011
0000
2100
0000
0001
0000
3210
0000
1000
0000
0011
0011
,
1300
0011
0110
0011
1200
0010
0321
1000
,
2130
0001
0100
3012
0100
2013
3201
1302
,
2103
0010
0001
3210
0001
1300
0021
0100
,
1230
0011
0011
0011
1000
0311
0110
1100
,
0001
0110
1100
0011
1100
0110
0011
0110
,
2100
0010
0100
3012
0100
0123
2130
3012
,
2103
0010
0100
3021
0100
0031
2100
0001
,
3120
0001
1100
0001
0100
0001
1130
0001
,
1100
0110
0011
1100
0012
1000
0223
0001
,
0000
0000
0000
0330
,
0000
0000
0000
0000
,
0000
0000
0000
0000
,
0000
0000
0000
0000
,
0000
0000
0000
0000
,
0000
0000
0000
0000
;
